egg tracker. Where are your eggs from? Our Egg Code Tracker will tell you where in the UK your egg is from and what type of egg it is. Egg on is a crossword puzzle clue that we have spotted over 20 times. Repositories This organization has no public repositories. Here's what you should avoid on a keto diet - foods containing a lot of carbs, both the sugary and the starchy kind. Tracking your hen's laying habits can help you know when certain girls will lay and how many eggs you are getting each month for the cost of feed. I built Flockstar in my spare time as . The End of the Year Garden Tracker will help you keep track of what you planted from year to year, the variety you grew and what your final yields were. For example, if your ideal body weight is 130 pounds (59 kg), your protein intake should be 71–100 grams. Egg packer Stonegate is to introduce a new feed tracker contract for its Waitrose suppliers, linking the price of eggs to the cost of feed. You can also record the breed of that egg if you're choosing to set multiple. SMASHERS MEGA LIGHT UP SURPRISE EGG: Slime, fizz and SMASH your way through over 25 lava volcano surprises and build the ultimate Dino SMASH-O-SAUR! Use the volcano Scratch Map to excavate the fossil rock, lava slime, dino sand and Smash Eggs and start collecting your Dino Light Up Smashers collection today! 1 x Light Up SMASH-O-SAUR Dino. Chicken & Egg Production Tracker Examples Share. Chicken Journal: An egg log book, egg tracker, backyard chicken log book, egg notebook, backyard chicken journal that makes for people who like to raise . iPhone The Egg Fast Tracker is designed to help people following the "Egg Fast" diet to keep track of quantities of key food items. The theoretical average would be expected at 1 egg every 7. Trying to keep track of the egg size and color isn't that useful to me and the extra steps in recording would make me less likely to use the spreadsheet, but if it's just the total number of eggs, it's much less of a hurdle to recording daily. For professionals who work with older adults making significant financial decisions, including attorneys, financial . 6g net carbs): Eggs Scrambled with Sautéed Onions and Cheddar Cheese Snack (2g net carbs): Atkins Peanut Butter Fudge Crisp Bar Lunch (5. It's a great tool for clan leaders to find duplicate members or folks that haven't played in a while. If you were going to put all your eggs in one basket, you'd want it to be this one. Subscribe to receive product updates and valuable tips on managing your flock * indicates required. Peak Ovulation It's at this point when one of your ovaries releases an egg and you may have increased discharge. Stocks of cage-free eggs decreased 1% at the start of the week as supplies moved. Financial Decision Tracker. For the past year and a half, she's been using the printer to build devices designed to track poachers who steal sea turtle eggs. Drones, giving 3, 6, or 12 for regular drones, 12 or 48 for elite drones, in addition to 96 or. TL;DR Version - New Egg Tracker (with spoiler prevention) makes checklists much easier. Plus many people get a bit freaked out about the macros and calories while following the egg fast. These results help identify those at-risk. This is called your fertile window. 652149272528840328, number of holders 2,742 and updated information of the token. Chicken & Egg Production Tracker Examples. Readers can use the interactive chart below to track the price of popular supermarket items such as bacon, bread, eggs and orange juice. We've been focused on this exact use case for 15 years, and we've spent that time building detailed features to help marketers better understand. This is the latest in a line of steps we have taken to further our commitments to sourcing with integrity. Method of production 0 = Organic 1 = Free Range 2 = Barn 3 = Caged 2. Tracking can be a fun activity for your family's backyard flock or in the classroom. 9 % Test CRC FE8BE1A1 Copy CRC FE8BE1A1 Copy OK Track 5 Filename I:\Eac\Egg - The Polite Force - 05 - Long Piece No. Outdoor Home carries Big Green Eggs, quality Charcoal, Gas and Electric Grills, Smokers, a vast array of BBQ accessories, and the finest Outdoor Furniture and Fire Pits available! We have a friendly and experienced staff ready to help you. Explosive Weapon: Lobs rockets that damage everything in an area. Designed for use by both individuals and businesses, Debt Manager is the perfect tool for keeping track of debtors (money loaned) and creditors (money owed). FlockPlenty—Chicken Egg Tracker The poultry keeper's best electronic friend, FlockPlenty helps keep track of your hens' egg output and feed . Weight loss can be a goal of people on a ketogenic diet, but the diet's popularity has led to an ethical debate over who should be encouraged to eat the diet. Vaccine Supply for 2021-2022 Season; Frequently Asked Questions on Vaccine Supply; Historical Reference of Vaccine Doses Distributed; Flu Vaccines. People using this app are typically short term users, so the app is free and sponsored by ads. The client had sent at least $130,000 to 26 different scammers. But according to the triumph I still have 11 remaining? I've definitely got all from the shattered throne and open world and 'thought' I had everything from the acendant challenges. Maybe it's time to add new layers to your flock to keep production numbers high or change. One way is to start by picking a protein source, such as meat, fish, seafood, eggs, or tofu. Regardless of your use, we think you’ll find the Incubation and Hatching Egg Tracker from Meyer Hatchery a valuable asset to your flock goals this year! Click the link below to download your copy. We customize your Egg with the necessary sensors to track any changes and automatically . Be sure to check out Shard Mode, Cheap Upgrade Mode, and Weapon Grind Mode!. Tracking egg production in hens. If you're looking to track your collections, Wowhead now has the Battle Pet Collection Tracker and Mount Collection Tracker!To use the tracker, simply import your character to view your collections. How to track users on your website without breaking the law. Some say that, while a diet should help. They are naturally clean, fresh eggs, internally perfect with shells intact and the air sac not exceeding 6mm in depth. The cheapest you can get conventional eggs around here is $1. Record vital information in seconds. The egg market rate varies from region to region and is declared by NECC based on the condition of the region. The disintegration of the body with its uncontrolled fluids, animal pleasure, the fragility of the spirit and the total absence of light, deformed figures, prisoners of the dead-end wings. office address: 3-5-823, 3rd floor, hyderabad business centre, hyderguda, hyderabad - 500029 ph. What is a ketogenic diet? A ketogenic diet primarily consists of 80-90% fat, 10-20% carbohydrate, and 2-5% protein, and is practiced by many for weight loss, type 2 diabetes, epilepsy, and seizures. Scrambled Eggs Made w/ milk & butter. The Clan Milestones and Triumphs pages are a great way to check out which of your clanmates share a similar goal with you, so you can reach out and party up with them (perhaps to win 5 more Gambit matches to. This organization has no public members. The egg stamp shows the production farming method and the farm that the egg has come from which can be identified by their unique individual code. - 7km Eggs include data from the Lush Jungle event. You'll get not only the number of calories for the foods you eat, but the complete nutrition facts: carb, protein and fat grams, plus vitamins and minerals. In this guide I will help you through as much Netherwing Eggs as possible, so that you can get your Netherwing Drake a lot quicker. FREE Egg Collection Chart Printable. For ease, you can approach our best period and ovulation tracker app that will provide you with the fertility calendar and estimate when ovulation occurs. Most of these commitments cover fresh shell eggs, liquid egg, egg products and/ . Easter Eggs & Quests Power & Pack-a-Punch. NOTE : Due to Maintenance activity system will not be accessible on 07th March 2018 between 06:00 PM to 07:00 PM (IST). By using advanced sensing technology known as impedance, kegg can detect your fertile window using your unique cycle data. Quickly see trends and identify problems. The egg's weight hints at how many of the nine gene slots the Monstie may have, while its smell points to gene quality. Login or Register to access this great feature and more and start building your wealth on the Grand . Welcome to Eggtimer Rocketry! If you're looking for information and/or support for your Eggtimer altimeters, Eggfinder GPS Trackers, or other Eggtimer Rocketry products then you're at the right place! All of our products are unique in that they are kits, we try our best to make them easy to assemble; we use through-hole parts or 0805-or. Track My Egg makes it easy to find out about the type of farm your eggs come from. The Egg Fast Tracker App Using some of the keto macro counters is a tedious way to keep track during the egg fast. Period When your cycle kicks into action and bleeding starts with your womb lining being shed. You can search for a clan or sign in and click "My Clan" to view clan info. It syncs with your smartphone to tell you how many eggs you've got at home (up to 14) and when they're going bad. We ensure all of our hens have the opportunity to go outside for a minimum of eight hours a day. and learn more about FlockPlenty - Chicken Egg Tracker. As it stands, the device only keeps track of an egg's arrival date and compares that to a predetermined expiration period, and not very well. You can scroll to the bottom of the directions to get your free egg laying and chicken production spreadsheet if you aren't into reading about the spreadsheet. I recently saw an Egg Fast Tracker App for Android devices. Become an outstanding merchant - Register today. It launched on February 11, 2011 on the Motorola Xoom tablet, one of the few devices to ever run the. If kept daily you'll know when your hens start laying more heavily and when they tapper off to rest for the winter months. How To Use The Egg Production Tracker STEP 1:. February 14 th, 2022 Welcome to the 2022 GDD Tracking Season Although it's not feeling much like spring in Michigan, GDDTracker starts counting days on February 15. They can be used for purchasing Boosts, Epic Research, the Hyperloop, upgrading the Fuel Tank, and crafting Artifacts. You would place this above the one-line Crazy Egg script you. Popular website tracking tools (like Google Analytics, Crazy Egg and Clicky) make it easy to do smart and extensive user tracking on your domain, . Super Enchanted Egg | View real-time prices and orders on the most accurate Hypixel skyblock bazaar tracker. The inventory of Large eggs in the key Midwest production region increased 4% as recent retail business slows. I downloaded it and decided that even though the app was nice, I wanted a way to track other . When you configure your snapshot, go to more settings, and change the tracking option to use Track by Name. Please verify your information and try again. Company, Egg Policy Description, Cage-Free Policy Link, Cage-Free Policy Screenshot, Cage-Free Policy Date, Industry . The Easter egg takes place over your home screen wallpaper so the background can be different. For example, if your ideal body weight is 130 pounds (59 kg), your protein intake should be 71-100 grams. If you have a small flock, you might want to enter the name of each hen to be able to count how many eggs she lays each month. The daily egg price in Delhi is also given in the daily rate sheet for the analysis of the poultry egg rates of that month. The egg tracker on that site is semi-broken for me. SnowTrace allows you to explore and search the Avalanche blockchain for transactions, addresses, tokens, prices and other activities taking place on . Track the Easter Bunny with the 2022 Easter Bunny Tracker starting Easter Eve and see where the most famous bunny travels to before and during Easter Sunday. 00, total supply 5,000,000, number of holders 1,423 and updated information of the token. Knowing the days you are most likely to be fertile can increase your chance of getting pregnant. This printable document is perfect for hanging on the refrigerator or keeping next to your incubator. San Jose, Costa Rica —(Map) Scientists have come up with a high-tech method to help protect endangered sea turtles. A fox sometimes spawns holding an egg, which it always drops upon death. 0064, total supply 10,000,000, number of holders 8 and updated information of the token. Rethink your morning meal We may earn commission from links on this page, but we only recommend products we back. Using the tracker can also help you budget for feed, supplements, and give you an overview of how your breeds are producing. and A/B testing tool (see how Hotjar and Crazy Egg compare). Track your egg back to the farmer. There is also a link copy that shows you what it looks like with data. PERCENTAGE OF CAGE-FREE EGGS SOURCED, AS REPORTED BY COMPANIES THAT RESPONDED TO THE SURVEY. Just enter the code stamped on top of the egg, . It will flag God rolls on your guns and help you keep your vault clean and tidy. There are related clues (shown below). The egg daily rate sheet contains the rate for several regions of India and the rate is provided per 100 eggs. This year we have a quick FAQ and what's new for 2021. Get the latest news, schedule, scores, stats, league standings, rankings and photos for Egg Harbor's high school's Girls Outdoor Track teams. EHT BMX is a family oriented Bicycle Motocross Race track operated totally by volunteers. Tracking can be a fun activity for your family’s backyard flock or in the classroom. Keep track of your sales and expenses to measure your profits and productivity. A treacherous scientist on the brink of a breakthrough. The Eggfinder is a GPS telemetry system that sends out a stream of NMEA-formatted serial data from a transmitter located in your rocket to a receiver on the ground. The purpose of these GPS devices is to track the egg's journey from poacher to consumer. Parent Company Name: Mahard Egg Farm. Roblox Admin Egg Tracker 2022-02-28T02:53:00-08:00 Rating: 4. Top Early Smartwatch & Fitness Tracker Sales Published by Retail Egg deals on best-selling watches & activity trackers from Garmin, . Trying to keep track of the egg size and color isn't that useful to me and the extra steps in recording would make me less likely to use the spreadsheet, but if it's just the total number of. Some malfunctioned, but others gave a trackable signal. Egg Inc community focused on the legit gaming and the fair distribution of coop groups. Egg tracker is one and it is more about the weight of the eggs which I don't care about and the other is for people selling eggs and tracking expenses and the like. The Egg is a vibration-attenuating track fastener, appropriate for direct fixation environments - at grade, aerial structures and tunnels. 00, total supply 5000000, number of holders 1244 and updated information of the token . Read through this article to know how to use eggs to promote hair growth, easy egg masks, the amazing benefits of eggs for hair and some of the potential side effects. Post-Period Your bleeding should have stopped by this point, but you may still have a very light flow. Golden Eggs can be obtained from: The Shop, via in-app purchases. See your eggs, feed, sales, and expenses at a glance. Allow cool eggs to warm slowly to room temperature before placing in the incubator. Grade A eggs are sold as shell eggs. Eggjs's http request tracker for link monitoring. Trace My Egg makes it easier to trace which farm your eggs have come from by using a 5-digit code that is 'stamped' onto each egg. Track My Eggs is a website dedicated to finding where in the UK free-range eggs have come from. Complete product news by BazaarTracker. EggLedger — Spaceship mission data exporter, supplementing rockets tracker Self-hosted tools EggContractor — Contract monitoring web app & CLI client, with multi-account aggregation, offline time tracking, and more Guides How to farm materials Advanced. Do a margin calculation in-game to check current prices. Download our FREE Hatching Egg Tracker by entering your email above. Learn how your chickens grow and identify potential problems with clear and insightful graphs of eggs and feed. - Easily edit and annotate existing entries. ‎Now it's fun and easy to track the health of your flock. Chicken & Egg Production Tracker Examples. 2 out of 5; We started Crazy Egg in 2006 with the goal of helping companies understand and track the behavior of their website visitors. If you’re looking to track your collections, Wowhead now has the Battle Pet Collection Tracker and Mount Collection Tracker! To use the tracker, simply import your character to view your collections. Egg Stamping - Official Information about egg stamping in the UK Note: The distances output by the calculator are merely estimations based on the post code of the supplier. Egg Tracker Track your egg back to the farmer We are so proud of our farms that we want you to know where your eggs came from. EggTrack is designed to: Ensure food companies can and will stick to their cage-free egg commitments; Encourage transparency in the marketplace; and Assist food companies during their transition to a 100% cage-free egg supply. Update March 22nd, 2022: The Season of Alola has shaken up egg pools. Decoy turtle eggs put in nests to track illegal trade in. The Egg Production Record will help you take note of how many eggs you are collecting each day, plus how many are broken and how many hens are laying. Complete Guide to Forsaken in Call of Duty: Black Ops Cold. The fake eggs do not damage the incubating eggs. Trace My Egg makes it easier to trace which farm your eggs have come from by using a 5-digit code that is ‘stamped’ onto each egg. Using some of the keto macro counters is a tedious way to keep track during the egg fast. Finally got Manaphy! I have Phione. We’ve been focused on this exact use case for 15 years, and we’ve spent that time building detailed features to help marketers better understand. If the egg is fertilized, it may travel to the uterus, build an embryo, and implant to develop into a baby. 1] on the western edge of the Windswept Aerie, after which the Dusklight Matriarch will bestow a reward in gratitude. Eggjs框架的http请求追踪器,适用于请求链路监控 - GitHub - JsonMa/egg-tracker: Eggjs's http request tracker for link monitoring. In-tray LED lights indicate the oldest egg, while. This was a major improvement. Get your sunny boost of vitamin D the tasty way. The version of the browser you are using is no longer supported. The two sea turtle eggs on the outside are fakes outfitted with GPS trackers. Using fake eggs with GPS trackers, researchers were able to track turtle eggs that were stolen and learn the locations of people buying and selling them. It's only tracking corrupted eggs I've destroyed from the Shattered Throne. Keep track of encounters while hunting shiny Pokémon. Both scalable and versatile, it can be used for a variety of financial activities including; commerce (the sale of goods and services), large scale loans, peer-to-peer. "Every man who suffers is butchered meat". - PokéStop/Gym Eggs include data from the Season of Alola pool. Check out our chooks in action! Our Chooktracker® cameras stream live to show you that our chooks really do get lots of space to roam outdoors. Download our FREE Egg Production Tracker by entering your email above. Maybe it’s time to add new layers to your flock to keep production numbers high or change. Organic Valley Hard-Boiled Eggs. Free range eggs · Big Brekkie Browns™ · Organic free range · Cage free eggs · Farm Fresh Cage Eggs . Easter egg hunts aren't just for the kids. During the last three days (the "lock-down" period), the humidity level should be increased to between 70-80%. Chelsea Stahl / NBC News; Getty Images. Welcome to Eggtimer Rocketry! If you’re looking for information and/or support for your Eggtimer altimeters, Eggfinder GPS Trackers, or other Eggtimer Rocketry products then you’re at the right place! All of our products are unique in that they are kits, we try our best to make them easy to assemble; we use through-hole parts or 0805-or. The results from our period tracker. I LOVE it! It inspired me to maks a much simplified spreadsheet for myself! I guess, since you're asking for feedback, that would be what I'd say, is I would find it more useful if it was a little simpler. It would be fairly easy to change the price based on what the egg prices are. Record your daily egg collection including usable eggs and eggs you may find broken or unsellable. Get started today with our free app. Is there a resource anywhere that will help me find out which eggs I'm missing? I know I definitely need all 5 from the raid and the 2 from the corrupted strike. This further justified my decision to file for conservatorship; his daughter will be taking over his finances. We offer Veteran's Memorial Park, Ocean Heights Ave, Egg Harbor Township, NJ 08234. If your flock is larger and you can't match an egg to a specific chicken, you can track your egg production by egg color or breed. LoserchickEgg (EGG) Token Tracker on PolygonScan shows the price of the Token $0. coop tracker and contract master list. The order number, e-mail address, or ZIP Code you entered are incorrect. With a focus on straightforwardness, you can rely on COD Tracker to help you achieve your goals. Pokémon BDSP: How To Get The Egg Monitor Pokétch App (& What. Use our clever Egg Tracker to find out more about the origin of your egg. Regardless of your use, we think you'll find the Incubation and Hatching Egg Tracker from Meyer Hatchery a valuable asset to your flock goals this year! Click the link below to download your copy. With the addition of the Wish-Ender exotic bow to Destiny 2: Forsaken, players can now break the Corrupted Eggs scattered across the Dreaming City destination. Rank History shows how popular FlockPlenty - Chicken Egg Tracker is in the iOS Store, and how that's changed over time. LoserchickEgg (EGG) Token Tracker. Tracking egg production in backyard chickens. An unlikely ally out for revenge. How To Use The Hatching Egg Tracker STEP 1:. 8g net carbs): 6 oz deli ham over 2 cups mixed greens with ½ Hass avocado, 5 large black olives, ½ cup sliced cucumbers, and 2 Tbsp blue cheese dressing. STEP 1: Download our FREE Hatching Egg Tracker by entering your email above. For La Clementina, Colomer, Jeno's Pizza, Mikaela, Oma. In fact, they get six times more space than the national free range standard. Using the tracker can also help you. FlockPlenty - Chicken Egg Tracker . Contribute to egg-/package-tracker development by creating an account on GitHub. We use air pressure to track elevation and atmospheric conditions - over time, we'll see how this influences hatch rate! Just like at home, it's important to maintain clean air in our incubators. If you are new to the tracker you can review detailed instructions on how to log your poultry and their eggs below. Use the calculator to see which days. Find out more about egg farming in New Zealand. Ownership Structure: privately held. If kept daily you’ll know when your hens start laying more heavily and when they tapper off to rest for the winter months. I use mine daily, I keep a clipboard with this printable and a pencil hung by the back door. All you need to worry about is the total number of eggs, fats and cheese. Choose the air contaminants you want to measure. About a quarter of the decoys got snatched. New users have a 2-day free premium account to experience all the features of GE Tracker. Welcome to the fifth chapter in our series of guides for Call of Duty: Black Ops Cold War Zombies! Throughout the year, our goal is to provide simple yet effective guides for the intricacies of each Zombies experience, including quests, easter eggs, challenges, and so on. See your eggs, feed, sales, and. A quarter of the fake eggs put among 101 turtle nests on four beaches in Costa Rica were stolen, with some eggs successfully tracked as they moved from thief to trafficker to. Keeping track of egg production is a really important task. The ideal humidity level for hatching eggs is still being debated among experts, but many agree that it should not fall below 25% or above 60% between setting and three days prior to hatching. How long are eggs safe to eat? Learn how to read an expiration date on an egg carton and understand how to tell an egg is safe to eat. Tracking can be a fun activity for your family’s backyard flock or those taking their eggs to market. 0 % Test CRC 2C11670B Copy CRC 2C11670B Copy OK Track 4 Filename I:\Eac\Egg - The Polite Force - 04 - Long Piece No. To calculate your protein needs on a ketogenic diet, multiply your ideal body weight in pounds by 0. And they can protect older adults from financial exploitation like undue influence, financial mismanagement and. A captured agent in the heart of darkness. Egg tracker is one and it is more about the weight of the eggs . Humidity is controlled in order to prevent unnecessary loss of egg moisture. EGG (EGG) Token Tracker on PolygonScan shows the price of the Token $0. Trade volumes and current price is updated every 5-minutes. 0977, total supply 1,896,327, number of holders 2,943 and updated information of the token. EGG Protocol (EGG) Token Tracker on FtmScan shows the price of the Token $0. Something as easy as using eggs can help you achieve this dream. The Egg Monitor was an application in the original Diamond and Pearl, and it was revolutionary for breeding Pokémon. Enter the code printed on your egg, without spaces or hyphens, to track which farm it's from. At Sainsbury's we care about the hens laying our eggs. This year we were proud to move to offering only free range eggs in store and online, sourced from free range farms in the UK. World S First No Kill Eggs Go On Sale In Berlin Pnu world news. You can track the performance of . Diamond Egg statistics and form. The yolk must not move away from the centre of the egg on rotation. Golden Eggs are a form of freemium currency in Egg, Inc. Happy healthy eggs At Sainsbury's we care about the hens laying our eggs. Your egg came from a cage farm in New Zealand. Track All Your Digital Assets from a Single DeFi Dashboard. Ole Miss Recruiting Tracker: 2023 Wide Receiver Prospect. Simple design makes it easy to add tally marks and a custom column lets you track anything. chikn egg (EGG) Token Tracker on SnowTrace shows the price of the Token $1. All GCAW members have made global commitments to source cage-free eggs by 2025. EggTrack highlights the progress companies are making across not only shell or whole egg, but also their product and ingredient egg supply chains too, which are . Glitchs, hacks and any kind of unfair advantage in the gameplay is not allowed. Title: SilverHomestead_Egg_Laying_Tracker_Blank Created Date: 5/9/2019 11:21:06 AM. Dreaming City Patrol:Divillian Mists (1). The inventory share of Large class shell eggs declined to a 49% share of all shell eggstocks on inventory at the start of the week. @mk2's public utilities for Egg, Inc. The server has a sorting bot that creates equal teams for every contract. Oftentimes the identity of the poachers is known, and the decoy eggs aim to look at the bigger crime picture - how the eggs are trafficked and moved around the country. Pokemon Go trainers are starting to see the option for adding the official egg tracker to their home screen. Price: Starts at $24/month; G2 rating: 4. It can be placed in the Razorwing Nest at [25. If you are already familiar with our previous egg and poultry trackers simply skip to the bottom to get the newest version! As always this egg tracking utility is free. Click on the middle section "Dusk and Dawn" (or use your right-arrow key or right-dpad button to navigate to it too). The Easter Bunny Tracker provides updates to kids of all ages as the Easter Bunny travels around the world. Repo designed to keep track of the eggs in the chicken coop Resources. This will provide you with the Track by Name code that you will need to place on your source page. 9 % Test CRC 6EC4FF92 Copy CRC. Latest news on all Laid In Britain Eggs products and events . Detect your fertile window and exercise your pelvic floor in a few minutes a day. May 17, 2018 - Edit: We now have a 2021 Version Available! you have chickens? Do you like spreadsheets? Then I have the Egg Laying Spreadsheet for you! No really, joking pitch aside, I have created this free chicken tracker and egg production spreadsheet for you. There are about 6 days during each menstrual cycle when you can get pregnant. EasterEggSwap (Egg) Token Tracker on FtmScan shows the price of the Token $0. For years the American Heart Association recommended limiting egg intake due to their high cholesterol content, yet in 2015 the Dietary . Then, to complete your meal, choose two low-carb vegetables and add a healthy source of fat. This free tracker sheet is perfect for mixed flocks who produce a colorful egg basket. I don't know if anybody had anything better, . In addition to hatching eggs. - Take notes photos to remember how your flock changes over time. 306634066769261568, number of holders 292 and updated information of the token. Fishy Egg (FEG) Token Tracker on BscScan shows the price of the Token $0. Garmin Black Friday Deals (2021): Top Early Smartwatch & Fitness. The Lost Razorwing Egg drops from devourers in Korthia up to twice daily. Use Crazy Egg to see what's hot and what's not, and to know what your web visitors are doing with tools, such as heatmaps, recordings, A/B testing & more. Actual distances may vary from those given as the calculation assumes the egg goes from producer direct to you. Companies committed to producing eggs with cage-free chickens have made progress this year despite the pandemic that roiled supply chains, according to the annual EggTrack report Thursday. Track the Easter Bunny with our Easter Bunny Tracker: a service that lets you keep track as the Easter Bunny delivers Easter eggs and candy to the homes of children. Pheasey planted a decoy egg in 101 sea turtle nests on four Costa Rican beaches. In other words, Monsties from heavier eggs will have more gene slots. Easily track the humidity levels of your incubator. Printable egg chart to keep track of how many eggs your flock of chicken is laying each month. An egg is an item that can be used to craft food items, or as a throwable entity to spawn chicks. Violation Tracker Parent Company Summary. Linking to a non-federal website does not constitute an endorsement by CDC or any of its employees of the sponsors or the information and products presented on the website. To see the status of an order, simply enter the following information: * Order Number:. Tracking can be a fun activity for your family's backyard flock or those taking their eggs to market. We have developed dozens of activities, and mobile apps that are enjoyed by kids of all ages. Or if you have separate flocks, you might track the eggs by coop. Click each page to see further details about the source. Developers created a 'fake egg' with a tracker and placed it in a sea turtle nest · It was taken with the real eggs by illegal traders and . A chicken drops an egg item every 5-10 minutes. 5-3 mmol/L range of nutritional ketosis (37Trusted Source). For a significant number of players, turning the phone off and on again is really all it takes to get the distance tracker back this has confused the tracker. Track your digital assets’ performance across blockchains in a single intuitive, user-friendly dashboard, with the ability to add additional wallets from any of the 5 following blockchains - Ethereum, Polygon, Avalanche, BSC, Solana and soon to come many more. Search FitWatch's free online calorie counter for your favorite foods. Luckily, he has over $1M in assets managed by a bank, so we are saving at least his last $1M. Track Easter Bunny is the first, biggest, and leading Easter Bunny Tracker, with kids all around the world using our tracker every Easter. Credit: Kim Williams-Guillén/Paso Pacifico In a home workspace once reserved for sewing projects, Kim Williams. FlockPlenty Chicken Egg Tracker App. No really, joking pitch aside, I have created this free chicken tracker and egg production spreadsheet for you. Why trust us? Rethink your morning meal Trying to whittle your waistline? You might want to rethink your morning meal. Check out our egg tracker selection for the very best in unique or custom, handmade pieces from our calendars & planners shops. More than a medication and appointment calendar, Embie allows you to track your infertility medical diagnosis, treatment cycles, egg and embryo reports, and so much more! Whether you're going through treatments to conceive a child, preserving your fertility (egg freezing), or are one of the special women helping another family realize their. The typical menstrual cycle is 28 days long, but each woman is different. The D2Checklist gear manager lets you view all your gear in a clean table format for sorting and tagging. As we can see in the chart above, most companies report that more than 90% of the fresh eggs they use are already cage-free. Use our clever Egg Tracker to find out . 99 on sale, free range starts at $3, so I used the price of $2. > Track an Order Track an Order. Noble Foods is launching a new tracker contract that will insure egg producers against volatile movements in feed costs. This year we have a quick FAQ and what’s new for 2021. Check out our OSRS Flipping Guide (2022), covering GE mechanics, flip finder tools and price graphs. Now it's fun and easy to track your flock with our free app. The Egg Fast Diet is a Keep it Simple program. You can also record the breed of that STEP 3:. There are seven different kinds of marine (sea) turtles in the world. Track specific exercises like running, weights or yoga to see your workout stats on display. Accurately read the temperature in your incubator & receive alerts if it gets too hot or cold. Trace my egg! Enter the code printed on your Lion egg in the box below to trace its life. Percentages of Stop/Gym eggs are calculated using data from senior (vetted) researchers. Yes, navigate to the "Triumphs" page and click on "Lore". Spring is typically the time of year when GDDTracker receives the most attention for alerting turfgrass managers of optimal application timing windows for suppressing annual bluegrass seedheads and crabgrass preemergence applications. Egg Fast Tracker TheBreezeApps Health & Fitness Everyone 60 Contains Ads Add to Wishlist I wrote this app to help people doing the 'Egg Fast' to track their daily consumption. com: Chicken Egg Chart Journal: Egg Tracker, Backyard Chicken Log Book, Egg Notebook, Backyard And Farm Chicken Journal For Women and Men: . Older Adult Nest Egg helps assess financial decision making and determine vulnerabilities. Search egg suppliers codes here (e. 0 % Test CRC 2A50583F Copy CRC 2A50583F Copy OK Track 14 Filename I:\Eac\Egg - Egg - 14 - You Are All Princes. Chicken Egg Tracking Spreadsheet (chickens forum at permies). Using one of the latest integrated GPS modules, the Eggfinder transmitter sends out a position update once a second, giving you the exact latitude and longitude of the rocket at that point in time. Access personal dashboard NEW. Rockets tracker — Tracker for active rocket missions, historical mission statistics, progress on artifact collection, etc. Hi there! In this guide I will help you through as much Netherwing Eggs as possible, so that you can get your Netherwing Drake a lot quicker. Find the right tool to track clicks, website visitors, users, and traffic. Here are 21 amazing ideas for planning an adult Easter egg hunt that will bring adults all of the childhood fun. Register Pokemon GO eggs, stops and hatching, and get useful statistics. To be truly useful, the Egg Minder needs to serve as a. Part of the Quirky + GE line of products, the Egg Mindertells your Wink a. Hey Guardians! Here is the easiest guide you can find on all 40 Corrupted Egg locations in Forsaken's Dreaming City. Track your menstrual cycle with Clue, the #1 doctor-recommended free period tracker app built in collaboration with top health researchers. Download FlockPlenty - Chicken Egg Tracker and enjoy it on your iPhone, iPad, and iPod touch. Producer identity A Unique code denoting where the egg was produced. Download this A4 Print Mood Tracker For April Easter Egg Tracker For Tracking Your Daily Mood For 30 Days vector illustration now. Track by Name solves this problem. egg-track doesn't have any pinned public repositories yet. 7k+ other OSRS players who are already capitalising on the Grand Exchange. Ole Miss Rebels Recruiting Tracker: Check back often as we keep you up-to-date on Rebels news as Ole Miss looks to improve on an already impressive class One of the bigger Egg Bowl battles. More than a medication and appointment calendar, Embie allows you to track your infertility medical diagnosis, treatment cycles, egg and embryo reports, and so much more! Whether you’re going through treatments to conceive a child, preserving your fertility (egg freezing), or are one of the special women helping another family realize their. This printable document is perfect for STEP 2:. This helps assure customers of the origin of their eggs. Quirky Egg Minder Wink App Enabled Smart Egg Tray, PEGGM-WH01. If unfertilized, the egg dissolves, and the uterine lining is shed during the period. This Chicken Keeping Journal / Egg Journal helps you keep track of your flock's info (birth date, first lay date, names etc) exactly which eggs . For Barilla, the transition has been 100% concluded for all egg types. Every woman dreams of having healthy and voluminous hair. Incubation and Egg Hatch Record. Alternatively, a player dropping a food item causes the fox to drop the egg. The purpose is to track your rocket in flight, and more importantly get it back. The Desktop version is currently offline. The token tracker page also shows the analytics and historical data. Enchanted Egg | View real-time prices and orders on the most accurate Hypixel skyblock bazaar tracker. Eggs have the best hatch rate when stored for no more than 7 days before beginning to incubate. Are you looking to track the egg production of your chickens, quail, or ducks for free? We've got you covered with our 4th annual updated chicken and poultry tracker. Abrupt warming from 55 degrees to 100 degrees can cause moisture condensation on the egg shell which can lead to disease and reduced hatches. Now it’s fun and easy to track the health of your flock. Infiltrate Omega's Vietnam base and expose the secrets within. The Centers for Disease Control and Prevention (CDC) cannot attest to the accuracy of a non-federal website. Track your digital assets' performance across blockchains in a single intuitive, user-friendly dashboard, with the ability to add additional wallets from any of the 5 following blockchains - Ethereum, Polygon, Avalanche, BSC, Solana and soon to come many more. Android easter eggs: A brief history and how to access. Financial wellness platform Best Egg has secured $225 million in a Series E capital round, the Delaware company announced in a news release Thursday (March 10). Track 13 Filename I:\Eac\Egg - Egg - 13 - Seven Is A Jolly Good Time. Access Google Sheets with a free Google account (for personal use) or Google Workspace account (for business use). since 1983, the Egg owes its excellent acoustical performance and superior maintenance records to its unique design. Tracking your hen’s laying habits can help you know when certain girls will lay and how many eggs you are getting each month for the cost of feed. After returning ten eggs, the matriarch will reward the [Dusklight Razorwing] flying mount. silkiechicken - I figured the price based on my local prices. This tracker keeps all the details of your chickens, quail, and ducks, the eggs they lay, and expenses/profit. 0977, total supply 1894982, number of holders 2941 and updated information . Trainers could leave two breedable Pokémon in the nursery, also known as two Pokémon of the same or compatible egg groups, and use the Egg Monitor app to see whether or not the Pokémon had an egg. So a dozen egg omelet is now going to cost you on average $2. That's why we created EggTrack, an innovative tool to track companies' . Discover the Top 10 Apps like FlockPlenty - Chicken Egg Tracker in 2021 for iPhone & iPad. Check out some other useful Egg, Inc. All I want is a simple calendar app where I can track the number of eggs I collect each day, and create graphs over time. With a focus on straightforwardness, you can rely on COD Tracker. "The Financial Decision Tracker I entered for a client came back high risk. STEP 2: Record the number of eggs you're incubating and the date you set them. We are so proud of our farms that we want you to know where your eggs came from. 5–3 mmol/L range of nutritional ketosis (37Trusted Source). Record the number of eggs you’re incubating and the date you set them. Enter your ID to access a personal dashboard where the status of all. Click to watch footage direct from a New Zealand cage farm. Decoy eggs made by a 3D-printer and fitted with satellite tags have been placed in sea turtle nests on beaches in Costa Rica to track the illegal trade of their eggs. Download FlockPlenty - Chicken Egg Tracker and enjoy it on your iPhone, iPad and iPod touch.